[Login] or [Signup]
Login
Username:
Password:
[Signup]
[Recover Account]


Poll


You must be logged in to view polls



Torrent Details For "18+I.Feel.Pretty.2018.720p.BluRay.x264.With.Sample.LLG"

18+I.Feel.Pretty.2018.720p.BluRay.x264.With.Sample.LLG

Download this torrent | Magnet Download
Health:
Seeds: 0
Leechers: 0
Completed:
Last Checked: 01-11-2018 06:37:53
External Torrent
Update Stats
Download Magnet


Poster
No poster


iMDB
Imdb Picture Title: I Feel Pretty
Year: 2018
Runtime: 110 minutes
Votes: 11268
Rating: 4.7/10
Language: English
Country: China, USA
All Genres: Comedy
Plot Outline: In I FEEL PRETTY a woman who struggles with feelings of deep insecurity and low self-esteem, that hold her back everyday, wakes from a brutal fall in an exercise class believing she is suddenly a supermodel. With this newfound confidence she is empowered to live her life fearlessly and flawlessly, but what will happen when she realizes her appearance never changed? Written by STXfilms


Tagline: Change everything Without changing anything
Director: Abby Kohn
Marc Silverstein
Writing By: Abby Kohn,Marc Silverstein,
Produced By: Felice Bee,Justin Bursch,Nicolas Chartier,Jonathan Deckter,Adam Fogelson,Kevin Kane,McG,Alissa Phillips,Daniel Rappaport,Dominic Rustam,Amy Schumer,Robert Simonds,Donald Tang,Mary Viola,Zhongjun Wang,Zhonglei Wang,
Music: Michael Andrews
Cast:
Amy Schumer as Renee Bennett
Michelle Williams as Avery LeClaire
Tom Hopper as Grant LeClair
Rory Scovel as Ethan
Adrian Martinez as Mason
Emily Ratajkowski as Mallory
Aidy Bryant as Vivian
Busy Philipps as Jane
Lauren Hutton as Lily LeClaire
Sasheer Zamata as Tasha
Trailers:
Trailer #1


Watch-Free-HD     Download

Details
Name:18+I.Feel.Pretty.2018.720p.BluRay.x264.With.Sample.LLG
Description:


******************************Thumbnail:**********************

 

******************************Screenshots:********************

 Screenshot 1

 Screenshot 2

 Screenshot 3

 Screenshot 4

 Screenshot 5

 Screenshot 6

 Screenshot 7

 Screenshot 8

 Screenshot 9

******************************Poster:**********************

 

************************************************************

18+I.Feel.Pretty.2018.720p.BluRay.x264.With.Sample.LLG.mp4
Format                                   : MPEG-4
Format profile                           : Base Media
Codec ID                                 : isom (isom/iso2/avc1/mp41)
File size                                : 1.36 GiB
Duration                                 : 1 h 50 min
Overall bit rate                         : 1 750 kb/s


Video
ID                                       : 1
Format                                   : AVC
Format/Info                              : Advanced Video Codec
Format profile                           : [email protected]
Format settings                          : CABAC / 4 Ref Frames
Format settings, CABAC                   : Yes
Format settings, RefFrames               : 4 frames
Codec ID                                 : avc1
Codec ID/Info                            : Advanced Video Coding
Duration                                 : 1 h 50 min
Bit rate                                 : 1 500 kb/s
Width                                    : 1 280 pixels
Height                                   : 536 pixels
Display aspect ratio                     : 2.40:1
Frame rate mode                          : Constant
Frame rate                               : 23.976 (23976/1000) FPS
Color space                              : YUV
Chroma subsampling                       : 4:2:0
Bit depth                                : 8 bits
Scan type                                : Progressive
Bits/(Pixel*Frame)                       : 0.091
Stream size                              : 1.15 GiB (85%)


Audio
ID                                       : 2
Format                                   : AC-3
Format/Info                              : Audio Coding 3
Commercial name                          : Dolby Digital
Codec ID                                 : ac-3
Duration                                 : 1 h 50 min
Bit rate mode                            : Constant
Bit rate                                 : 256 kb/s
Channel(s)                               : 6 channels
Channel layout                           : L R C LFE Ls Rs
Sampling rate                            : 48.0 kHz
Frame rate                               : 31.250 FPS (1536 SPF)
Bit depth                                : 16 bits
Compression mode                         : Lossy
Stream size                              : 203 MiB (15%)
Language                                 : English
Service kind                             : Complete Main
Default                                  : Yes
Alternate group                          : 1


********************************************************

Category:Movies > 720P Bluray
Lang:English  English
Total Size:1.42 GB
Info Hash:31cff637824f22b4832b6b91c3ad04b1bee5027c
Added By:LifeLongg
Date Added:01-11-2018 06:37:53
Views:344
Hits:18

Download Torrent

Ratings:Not Yet Rated (Log in to rate it)


Tracker:
udp://tracker.coppersurfer.tk:6969/announce


File List: 


Comments

No comments still posted

Powered by 10 Hamsters v2-svn -|- Page Generated In 0.519056 secs.
-|- RSS FEED
Theme By: Nikkbu
Sitemap