[Login] or [Signup]
Login
Username:
Password:
[Signup]
[Recover Account]


Poll


You must be logged in to view polls



Torrent Details For "Along With the Gods The Last 49 Days 2018 720p BluRay x264 ESub [MW]"

Along With the Gods The Last 49 Days 2018 720p BluRay x264 ESub [MW]

Download this torrent | Magnet Download
Health:
Seeds: 129
Leechers: 101
Completed: 197 
Last Checked: 04-11-2018 15:09:43
External Torrent
Update Stats
Download Magnet


Poster
No poster


Watch-Free-HD     Download

Details
Name:Along With the Gods The Last 49 Days 2018 720p BluRay x264 ESub [MW]
Description:

 


General
Format                                   : Matroska
Format version                           : Version 4 / Version 2
File size                                : 1.55 GiB
Duration                                 : 2 h 21 min
Overall bit rate                         : 1 569 kb/s

Video
ID                                       : 1
Format                                   : AVC
Format/Info                              : Advanced Video Codec
Format profile                           : [email protected]
Format settings                          : CABAC / 4 Ref Frames
Format settings, CABAC                   : Yes
Format settings, RefFrames               : 4 frames
Codec ID                                 : V_MPEG4/ISO/AVC
Duration                                 : 2 h 21 min
Bit rate                                 : 1 500 kb/s
Width                                    : 1 280 pixels
Height                                   : 536 pixels
Display aspect ratio                     : 2.40:1
Frame rate mode                          : Constant
Frame rate                               : 24.000 FPS
Color space                              : YUV
Chroma subsampling                       : 4:2:0
Bit depth                                : 8 bits
Scan type                                : Progressive
Bits/(Pixel*Frame)                       : 0.091
Stream size                              : 1.47 GiB (95%)
Writing library                          : x264 core 148 r2643 5c65704
Default                                  : Yes
Forced                                   : No

Audio
ID                                       : 2
Format                                   : AAC
Format/Info                              : Advanced Audio Codec
Format profile                           : LC
Codec ID                                 : A_AAC-2
Duration                                 : 2 h 21 min
Bit rate                                 : 80.0 kb/s
Channel(s)                               : 2 channels
Channel positions                        : Front: L R
Sampling rate                            : 48.0 kHz
Frame rate                               : 46.875 FPS (1024 SPF)
Compression mode                         : Lossy
Stream size                              : 80.9 MiB (5%)
Language                                 : Korean
Default                                  : Yes
Forced                                   : No

Text #1
ID                                       : 3
Format                                   : UTF-8
Codec ID                                 : S_TEXT/UTF8
Codec ID/Info                            : UTF-8 Plain Text
Duration                                 : 2 h 16 min
Bit rate                                 : 45 b/s
Count of elements                        : 1838
Stream size                              : 45.1 KiB (0%)
Language                                 : English
Default                                  : Yes
Forced                                   : Yes

Text #2
ID                                       : 4
Format                                   : UTF-8
Codec ID                                 : S_TEXT/UTF8
Codec ID/Info                            : UTF-8 Plain Text
Duration                                 : 2 h 16 min
Bit rate                                 : 45 b/s
Count of elements                        : 1847
Stream size                              : 45.6 KiB (0%)
Title                                    : CHS
Language                                 : Chinese
Default                                  : No
Forced                                   : No


Note:- Movie Language is Korean With English & Chinese Subtitle

 http://pichub.site/image/7j8EV
 http://pichub.site/image/7jBsN
 http://pichub.site/image/7jAmT
 http://pichub.site/image/7ju5g
 http://pichub.site/image/7jgaD
 http://pichub.site/image/7jmzZ

Category:Movies > 720P Bluray
Lang:Korean
Total Size:1.55 GB
Info Hash:728b16a4d672c808fbbd23b25a06c08ca5c20f24
Added By:Freaky
Date Added:04-11-2018 15:09:31
Views:58
Hits:2

Download Torrent

Ratings:Not Yet Rated (Log in to rate it)


Tracker:
udp://tracker.coppersurfer.tk:6969/announce


File List: 


Comments

No comments still posted

Powered by 10 Hamsters v2-svn -|- Page Generated In 0.175883 secs.
-|- RSS FEED
Theme By: Nikkbu
Sitemap