[Login] or [Signup]
Login
Username:
Password:
[Signup]
[Recover Account]


Poll


You must be logged in to view polls



Torrent Details For "BlacKkKlansman 2018 1080p BluRay x264 DTS [MW]"

BlacKkKlansman 2018 1080p BluRay x264 DTS [MW]

Download this torrent | Magnet Download
Health:
Seeds: 87
Leechers: 236
Completed: 133 
Last Checked: 04-11-2018 15:14:01
External Torrent
Update Stats
Download Magnet


Poster
No poster


Watch-Free-HD     Download

Details
Name:BlacKkKlansman 2018 1080p BluRay x264 DTS [MW]
Description:

 


General
Format                                   : Matroska
Format version                           : Version 4 / Version 2
File size                                : 3.53 GiB
Duration                                 : 2 h 14 min
Overall bit rate                         : 3 748 kb/s

Video
ID                                       : 1
Format                                   : AVC
Format/Info                              : Advanced Video Codec
Format profile                           : [email protected]
Format settings                          : CABAC / 4 Ref Frames
Format settings, CABAC                   : Yes
Format settings, RefFrames               : 4 frames
Codec ID                                 : V_MPEG4/ISO/AVC
Duration                                 : 2 h 14 min
Bit rate                                 : 3 000 kb/s
Width                                    : 1 920 pixels
Height                                   : 804 pixels
Display aspect ratio                     : 2.40:1
Frame rate mode                          : Constant
Frame rate                               : 23.976 (24000/1001) FPS
Color space                              : YUV
Chroma subsampling                       : 4:2:0
Bit depth                                : 8 bits
Scan type                                : Progressive
Bits/(Pixel*Frame)                       : 0.081
Stream size                              : 2.81 GiB (80%)
Writing library                          : x264 core 155 r2901 7d0ff22
Default                                  : Yes
Forced                                   : No

Audio
ID                                       : 2
Format                                   : DTS
Format/Info                              : Digital Theater Systems
Codec ID                                 : A_DTS
Duration                                 : 2 h 14 min
Bit rate mode                            : Constant
Bit rate                                 : 756 kb/s
Channel(s)                               : 6 channels
Channel positions                        : Front: L C R, Side: L R, LFE
Sampling rate                            : 48.0 kHz
Frame rate                               : 93.750 FPS (512 SPF)
Bit depth                                : 16 bits
Compression mode                         : Lossy
Stream size                              : 729 MiB (20%)
Language                                 : English
Default                                  : Yes
Forced                                   : No

Text
ID                                       : 3
Format                                   : VobSub
Muxing mode                              : zlib
Codec ID                                 : S_VOBSUB
Codec ID/Info                            : Picture based subtitle format used on DVDs
Duration                                 : 2 h 8 min
Bit rate                                 : 9 012 b/s
Count of elements                        : 2633
Stream size                              : 8.28 MiB (0%)
Language                                 : English
Default                                  : Yes
Forced                                   : No

Menu
00:00:00.000                             : en:00:00:00.000
00:04:10.250                             : en:00:04:10.250
00:13:54.876                             : en:00:13:54.876
00:23:16.604                             : en:00:23:16.604
00:27:56.508                             : en:00:27:56.508
00:36:10.668                             : en:00:36:10.668
00:43:21.557                             : en:00:43:21.557
00:48:30.616                             : en:00:48:30.616
00:54:58.629                             : en:00:54:58.629
00:59:48.543                             : en:00:59:48.543
01:07:04.771                             : en:01:07:04.771
01:16:37.802                             : en:01:16:37.802
01:22:20.394                             : en:01:22:20.394
01:29:38.123                             : en:01:29:38.123
01:39:10.653                             : en:01:39:10.653
01:48:27.042                             : en:01:48:27.042
01:56:05.584                             : en:01:56:05.584
02:00:43.945                             : en:02:00:43.945
02:03:57.430                             : en:02:03:57.430
02:09:03.569                             : en:02:09:03.569


 http://pichub.site/image/7jUwX
 http://pichub.site/image/7jGqI
 http://pichub.site/image/7jv08
 http://pichub.site/image/7jxFJ
 http://pichub.site/image/7jLE5
 http://pichub.site/image/7jruh

Category:Movies > 1080P Bluray
Lang:English  English
Total Size:3.53 GB
Info Hash:8fbaa618aedd47e59001636bd164008c36253b3b
Added By:Freaky
Date Added:04-11-2018 15:13:38
Views:87
Hits:6

Download Torrent

Ratings:Not Yet Rated (Log in to rate it)


Tracker:
udp://tracker.coppersurfer.tk:6969/announce


File List: 


Comments

No comments still posted

Powered by 10 Hamsters v2-svn -|- Page Generated In 0.629068 secs.
-|- RSS FEED
Theme By: Nikkbu
Sitemap