[Login] or [Signup]
Login
Username:
Password:
[Signup]
[Recover Account]


Poll


You must be logged in to view polls



Torrent Details For "The Endless 2017 1080p BluRay x264 DTS [MW]"

The Endless 2017 1080p BluRay x264 DTS [MW]

Download this torrent | Magnet Download
Health:
Seeds: 49
Leechers: 70
Completed: 43 
Last Checked: 05-11-2018 11:48:27
External Torrent
Update Stats
Download Magnet


Poster
No poster


Watch-Free-HD     Download

Details
Name:The Endless 2017 1080p BluRay x264 DTS [MW]
Description:

 


General
Format                                   : Matroska
Format version                           : Version 4 / Version 2
File size                                : 2.52 GiB
Duration                                 : 1 h 51 min
Overall bit rate                         : 3 232 kb/s

Video
ID                                       : 1
Format                                   : AVC
Format/Info                              : Advanced Video Codec
Format profile                           : [email protected]
Format settings                          : CABAC / 4 Ref Frames
Format settings, CABAC                   : Yes
Format settings, RefFrames               : 4 frames
Codec ID                                 : V_MPEG4/ISO/AVC
Duration                                 : 1 h 51 min
Bit rate                                 : 2 500 kb/s
Width                                    : 1 920 pixels
Height                                   : 804 pixels
Display aspect ratio                     : 2.40:1
Frame rate mode                          : Constant
Frame rate                               : 23.976 (24000/1001) FPS
Color space                              : YUV
Chroma subsampling                       : 4:2:0
Bit depth                                : 8 bits
Scan type                                : Progressive
Bits/(Pixel*Frame)                       : 0.068
Stream size                              : 1.93 GiB (76%)
Writing library                          : x264 core 155 r2901 7d0ff22
Default                                  : Yes
Forced                                   : No

Audio
ID                                       : 2
Format                                   : DTS
Format/Info                              : Digital Theater Systems
Codec ID                                 : A_DTS
Duration                                 : 1 h 51 min
Bit rate mode                            : Constant
Bit rate                                 : 756 kb/s
Channel(s)                               : 6 channels
Channel positions                        : Front: L C R, Side: L R, LFE
Sampling rate                            : 48.0 kHz
Frame rate                               : 93.750 FPS (512 SPF)
Bit depth                                : 16 bits
Compression mode                         : Lossy
Stream size                              : 604 MiB (23%)
Language                                 : English
Default                                  : Yes
Forced                                   : No

Text #1
ID                                       : 3
Format                                   : UTF-8
Codec ID                                 : S_TEXT/UTF8
Codec ID/Info                            : UTF-8 Plain Text
Duration                                 : 1 h 49 min
Bit rate                                 : 49 b/s
Count of elements                        : 1313
Stream size                              : 39.9 KiB (0%)
Language                                 : English
Default                                  : Yes
Forced                                   : No

Menu
00:00:00.000                             : en:00:00:00.000
00:09:15.013                             : en:00:09:15.013
00:18:03.582                             : en:00:18:03.582
00:25:05.462                             : en:00:25:05.462
00:33:35.263                             : en:00:33:35.263
00:40:55.953                             : en:00:40:55.953
00:52:41.950                             : en:00:52:41.950
01:02:55.397                             : en:01:02:55.397
01:13:09.427                             : en:01:13:09.427
01:24:05.832                             : en:01:24:05.832
01:32:10.775                             : en:01:32:10.775
01:47:25.522                             : en:01:47:25.522


 http://pichub.site/image/VRCB8
 http://pichub.site/image/VRtf5
 http://pichub.site/image/VRhPJ
 http://pichub.site/image/VRzhh
 http://pichub.site/image/VRAWr
 http://pichub.site/image/VR8rj

Category:Movies > 1080P Bluray
Lang:English  English
Total Size:2.52 GB
Info Hash:2d45c61380346d6f5d5004fe4ab5266322637223
Added By:Freaky
Date Added:05-11-2018 11:48:10
Views:91
Hits:2

Download Torrent

Ratings:Not Yet Rated (Log in to rate it)


Tracker:
udp://tracker.coppersurfer.tk:6969/announce


File List: 


Comments

No comments still posted

Powered by 10 Hamsters v2-svn -|- Page Generated In 0.673438 secs.
-|- RSS FEED
Theme By: Nikkbu
Sitemap