[Login] or [Signup]
Login
Username:
Password:
[Signup]
[Recover Account]


Poll


You must be logged in to view polls



Torrent Details For "Escape.Plan.2.Hades.2018.1080p.BluRay"

Escape.Plan.2.Hades.2018.1080p.BluRay

Download this torrent | Magnet Download
Health:
Seeds: 0
Leechers: 0
Completed:
Last Checked: 07-11-2018 14:46:42
External Torrent
Update Stats
Download Magnet


Poster
No poster


Watch-Free-HD     Download

Details
Name:Escape.Plan.2.Hades.2018.1080p.BluRay
Description:


Format                                  : MPEG-4
Format profile                          : Base Media
Codec ID                                : isom (isom/iso2/avc1/mp41)
File size                                : 1.52 GiB
Duration                                : 1 h 33 min
Overall bit rate                        : 2 325 kb/s
Writing application                      : Lavf58.2.103

Video
ID                                      : 1
Format                                  : AVC
Format/Info                              : Advanced Video Codec
Format profile                          : [email protected]
Format settings                          : CABAC / 4 Ref Frames
Format settings, CABAC                  : Yes
Format settings, RefFrames              : 4 frames
Codec ID                                : avc1
Codec ID/Info                            : Advanced Video Coding
Duration                                : 1 h 33 min
Bit rate                                : 2 150 kb/s
Width                                    : 1 920 pixels
Height                                  : 800 pixels
Display aspect ratio                    : 2.40:1
Frame rate mode                          : Constant
Frame rate                              : 23.976 (24000/1001) FPS
Color space                              : YUV
Chroma subsampling                      : 4:2:0
Bit depth                                : 8 bits
Scan type                                : Progressive
Bits/(Pixel*Frame)                      : 0.058
Stream size                              : 1.41 GiB (92%)
Writing library                          : x264 core 152
Encoding settings                        : cabac=1 / ref=4 / deblock=1:-1:-1 / analyse=0x3:0x133 / me=umh / subme=9 / psy=1 / psy_rd=1.00:0.15 / mixed_ref=1 / me_range=24 / chroma_me=1 / trellis=2 / 8x8dct=1 / cqm=0 / deadzone=21,11 / fast_pskip=0 / chroma_qp_offset=-3 / threads=12 / lookahead_threads=1 / sliced_threads=0 / nr=0 / decimate=1 / interlaced=0 / bluray_compat=0 / constrained_intra=0 / bframes=3 / b_pyramid=2 / b_adapt=2 / b_bias=0 / direct=3 / weightb=1 / open_gop=0 / weightp=2 / keyint=250 / keyint_min=23 / scenecut=40 / intra_refresh=0 / rc_lookahead=60 / rc=2pass / mbtree=1 / bitrate=2150 / ratetol=1.0 / qcomp=0.60 / qpmin=0 / qpmax=69 / qpstep=4 / cplxblur=20.0 / qblur=0.5 / vbv_maxrate=31250 / vbv_bufsize=31250 / nal_hrd=none / filler=0 / ip_ratio=1.40 / aq=1:1.00
Codec configuration box                  : avcC

Audio
ID                                      : 2
Format                                  : AAC LC
Format/Info                              : Advanced Audio Codec Low Complexity
Codec ID                                : mp4a-40-2
Duration                                : 1 h 33 min
Bit rate mode                            : Constant
Bit rate                                : 169 kb/s
Channel(s)                              : 2 channels
Channel layout                          : L R
Sampling rate                            : 48.0 kHz
Frame rate                              : 46.875 FPS (1024 SPF)
Compression mode                        : Lossy
Stream size                              : 113 MiB (7%)
Default                                  : Yes
Alternate group                          : 1
 
 

 



Category:Movies > 1080P Bluray
Lang:English  English
Total Size:1.52 GB
Info Hash:21cf7c5ade1669dc742da4d9e34d12bc95f15549
Added By:SS
Date Added:07-11-2018 14:46:42
Views:60
Hits:8

Download Torrent

Ratings:Not Yet Rated (Log in to rate it)


Tracker:
udp://tracker.coppersurfer.tk:6969/announce


File List: 


Comments

No comments still posted

Powered by 10 Hamsters v2-svn -|- Page Generated In 0.804385 secs.
-|- RSS FEED
Theme By: Nikkbu
Sitemap